Welcome to PhantomPilots.com

Sign up for a weekly email of the latest drone news & information

Can you determine video settings afterwards?

Discussion in 'Photos and Video' started by Ryan380, Feb 24, 2016.

  1. Ryan380

    Joined:
    Feb 24, 2016
    Messages:
    4
    Likes Received:
    1
    Is there a way to determine which settings were used to take a video? Like which of the following were used:
    • Style (Standard, Landscape, Soft, etc.)
    • Color (Classic, D-Log, None, etc.)
    • White Balance (AWB, Sunny, etc.)
    Possibly in the metadata of the video file or somewhere on DJI GO? Captions don't show anything.
     
  2. Trackman1

    Joined:
    Jan 1, 2016
    Messages:
    838
    Likes Received:
    211
    Location:
    Ontario, Canada
    On a windows pc I use Media Info.
    MediaInfo
     
  3. Ryan380

    Joined:
    Feb 24, 2016
    Messages:
    4
    Likes Received:
    1
    Does that actually show Style/Color/WB settings? I don't see it in the screenshots.
     
  4. Trackman1

    Joined:
    Jan 1, 2016
    Messages:
    838
    Likes Received:
    211
    Location:
    Ontario, Canada
    No. It is more for video and audio media.

    This an example from an mp4 file.

    Format : MPEG-4
    Format profile : Sony PSP
    Codec ID : MSNV
    File size : 3.13 GiB
    Duration : 19mn 49s
    Overall bit rate : 22.6 Mbps
    Encoded date : UTC 2016-02-18 16:30:24
    Tagged date : UTC 2016-02-18 16:30:24

    Video
    ID : 1
    Format : AVC
    Format/Info : Advanced Video Codec
    Format profile : High@L4.1
    Format settings, CABAC : Yes
    Format settings, ReFrames : 2 frames
    Format settings, GOP : M=3, N=13
    Codec ID : avc1
    Codec ID/Info : Advanced Video Coding
    Duration : 19mn 49s
    Source duration : 19mn 49s
    Bit rate : 22.5 Mbps
    Width : 1 920 pixels
    Height : 1 080 pixels
    Display aspect ratio : 16:9
    Frame rate mode : Variable
    Frame rate : 29.970 fps
    Minimum frame rate : 29.940 fps
    Maximum frame rate : 29.970 fps
    Color space : YUV
    Chroma subsampling : 4:2:0
    Bit depth : 8 bits
    Scan type : Progressive
    Bits/(Pixel*Frame) : 0.362
    Stream size : 3.11 GiB (99%)
    Source stream size : 3.11 GiB (99%)
    Language : English
    Encoded date : UTC 2016-02-18 16:30:24
    Tagged date : UTC 2016-02-18 16:30:24
    mdhd_Duration : 1189590

    Audio
    ID : 2
    Format : AAC
    Format/Info : Advanced Audio Codec
    Format profile : LC
    Codec ID : 40
    Duration : 19mn 49s
    Source duration : 19mn 49s
    Bit rate mode : Constant
    Bit rate : 128 Kbps
    Channel(s) : 2 channels
    Channel positions : Front: L R
    Sampling rate : 48.0 KHz
    Compression mode : Lossy
    Stream size : 18.1 MiB (1%)
    Source stream size : 18.1 MiB (1%)
    Language : English
    Encoded date : UTC 2016-02-18 16:30:24
    Tagged date : UTC 2016-02-18 16:30:24
    mdhd_Duration : 1189588